<?xml version="1.0" standalone="no"?>
<!DOCTYPE svg PUBLIC "-//W3C//DTD SVG 1.1//EN" "http://www.w3.org/Graphics/SVG/1.1/DTD/svg11.dtd" >
<svg xmlns="http://www.w3.org/2000/svg">
<metadata>Generated by IcoMoon</metadata>
<defs>
<font id="escortwp" horiz-adv-x="1024">
<font-face units-per-em="1024" ascent="960" descent="-64" />
<missing-glyph horiz-adv-x="1024" />
<glyph unicode="&#x20;" horiz-adv-x="512" d="" />
<glyph unicode="&#xe800;" glyph-name="cancel" horiz-adv-x="804" d="M741.376 204.288q0-22.528-15.36-38.912l-77.824-77.824q-16.384-15.36-38.912-15.36t-38.912 15.36l-167.936 168.96-167.936-168.96q-16.384-15.36-38.912-15.36t-38.912 15.36l-77.824 77.824q-16.384 16.384-16.384 38.912t16.384 38.912l167.936 167.936-167.936 167.936q-16.384 16.384-16.384 38.912t16.384 38.912l77.824 77.824q16.384 16.384 38.912 16.384t38.912-16.384l167.936-167.936 167.936 167.936q16.384 16.384 38.912 16.384t38.912-16.384l77.824-77.824q15.36-15.36 15.36-38.912t-15.36-38.912l-167.936-167.936 167.936-167.936q15.36-15.36 15.36-38.912z" />
<glyph unicode="&#xe802;" glyph-name="pencil" horiz-adv-x="983" d="M960.512 709.12q22.528-22.528 22.528-56.32t-22.528-56.32l-583.68-583.68q-22.528-21.504-61.44-38.912t-74.752-17.408h-240.64v239.616q0 35.84 17.408 75.776t38.912 61.44l583.68 583.68q23.552 22.528 56.32 22.528t56.32-22.528zM147.456 272.896l66.56-65.536 441.344 443.392-65.536 64.512zM240.64 62.976q14.336 0 33.792 8.192-10.24 10.24-27.648 26.624t-51.2 51.2-57.344 57.344l-22.528 22.528q-9.216-21.504-9.216-32.768v-79.872l53.248-53.248h80.896zM316.416 103.936l442.368 442.368-64.512 65.536-443.392-441.344zM796.672 584.192l68.608 68.608-168.96 168.96-68.608-67.584z" />
<glyph unicode="&#xe803;" glyph-name="user" horiz-adv-x="640" d="M320.512 901.632q109.568 0 187.392-78.848t78.848-187.392-78.848-188.416-187.392-77.824-188.416 77.824-77.824 188.416 77.824 187.392 188.416 78.848zM0 100.864q0 84.992 88.064 149.504t232.448 64.512q139.264 0 229.376-64.512t90.112-149.504q0-41.984-91.136-73.728t-228.352-32.768q-143.36 0-232.448 32.768t-88.064 73.728z" />
<glyph unicode="&#xe804;" glyph-name="plus-circled" horiz-adv-x="878" d="M695.296 411.136v73.728q0 14.336-11.264 25.6t-25.6 10.24h-146.432v146.432q0 15.36-11.264 25.6t-25.6 11.264h-72.704q-15.36 0-25.6-11.264t-11.264-25.6v-146.432h-146.432q-14.336 0-25.6-10.24t-10.24-25.6v-73.728q0-14.336 10.24-25.6t25.6-11.264h146.432v-145.408q0-15.36 11.264-25.6t25.6-11.264h72.704q15.36 0 25.6 11.264t11.264 25.6v145.408h146.432q14.336 0 25.6 11.264t11.264 25.6zM877.568 448q0-119.808-58.368-220.16t-159.744-159.744-220.16-59.392-221.184 59.392-158.72 159.744-59.392 220.16 59.392 220.16 158.72 159.744 221.184 59.392 220.16-59.392 159.744-159.744 58.368-220.16z" />
<glyph unicode="&#xe805;" glyph-name="mail" d="M951.296 100.864v438.272q-18.432-20.48-39.936-37.888-152.576-116.736-243.712-192.512-28.672-24.576-47.104-38.912t-49.152-27.648-58.368-13.312h-2.048q-26.624 0-58.368 13.312t-49.152 27.648-47.104 38.912q-90.112 75.776-243.712 192.512-21.504 17.408-39.936 37.888v-438.272q0-8.192 6.144-13.312t12.288-5.12h841.728q7.168 0 12.288 5.12t6.144 13.312zM951.296 700.928v14.336t-1.024 7.168-1.024 7.168-3.072 5.12-5.12 4.096-8.192 2.048h-841.728q-7.168 0-12.288-6.144t-6.144-12.288q0-96.256 83.968-162.816 110.592-87.040 229.376-181.248 4.096-2.048 20.48-16.384t25.6-21.504 25.6-18.432 28.672-15.36 24.576-5.12h2.048q11.264 0 24.576 5.12t28.672 15.36 25.6 18.432 25.6 21.504 20.48 16.384q118.784 94.208 229.376 181.248 30.72 24.576 57.344 66.56t26.624 74.752zM1024 722.432v-621.568q0-37.888-26.624-64.512t-64.512-27.648h-841.728q-36.864 0-64.512 27.648t-26.624 64.512v621.568q0 37.888 26.624 64.512t64.512 26.624h841.728q37.888 0 64.512-26.624t26.624-64.512z" />
<glyph unicode="&#xe806;" glyph-name="heart" horiz-adv-x="1039" d="M520.192 22.016q-17.408 0-29.696 9.216-26.624 17.408-87.040 59.392t-157.696 114.688-137.216 112.64q-108.544 108.544-108.544 270.336 0 118.784 83.968 202.752t202.752 83.968q146.432 0 233.472-120.832 38.912 56.32 101.376 88.064t132.096 32.768q119.808 0 202.752-83.968t82.944-202.752q0-161.792-108.544-270.336-38.912-38.912-136.192-112.64t-158.72-115.712-84.992-58.368q-13.312-9.216-30.72-9.216zM286.72 768.512q-73.728 0-126.976-52.224t-53.248-128q0-116.736 77.824-194.56 80.896-80.896 335.872-253.952 253.952 173.056 334.848 253.952 77.824 77.824 77.824 194.56 0 74.752-52.224 128t-126.976 52.224q-74.752 0-128-52.224t-52.224-128q0-22.528-16.384-37.888t-36.864-15.36-37.888 15.36-15.36 37.888q0 74.752-53.248 128t-126.976 52.224z" />
<glyph unicode="&#xe807;" glyph-name="picture" horiz-adv-x="1097" d="M365.568 631.296q0-46.080-31.744-77.824t-77.824-32.768-77.824 32.768-31.744 77.824 31.744 76.8 77.824 32.768 77.824-32.768 31.744-76.8zM951.296 411.136v-256h-804.864v109.568l182.272 183.296 92.16-91.136 291.84 291.84zM1005.568 813.568h-914.432q-7.168 0-12.288-5.12t-6.144-13.312v-694.272q0-8.192 6.144-13.312t12.288-5.12h914.432q7.168 0 13.312 5.12t5.12 13.312v694.272q0 7.168-5.12 13.312t-13.312 5.12zM1096.704 795.136v-694.272q0-37.888-26.624-64.512t-64.512-27.648h-914.432q-36.864 0-64.512 27.648t-26.624 64.512v694.272q0 37.888 26.624 64.512t64.512 27.648h914.432q37.888 0 64.512-27.648t26.624-64.512z" />
<glyph unicode="&#xe808;" glyph-name="cancel-circled" horiz-adv-x="878" d="M656.384 318.976q0 14.336-10.24 25.6l-103.424 103.424 103.424 103.424q10.24 11.264 10.24 25.6 0 15.36-10.24 26.624l-52.224 51.2q-10.24 11.264-25.6 11.264t-25.6-11.264l-103.424-103.424-103.424 103.424q-11.264 11.264-26.624 11.264t-25.6-11.264l-51.2-51.2q-11.264-11.264-11.264-26.624 0-14.336 11.264-25.6l103.424-103.424-103.424-103.424q-11.264-11.264-11.264-25.6 0-15.36 11.264-26.624l51.2-51.2q10.24-11.264 25.6-11.264t26.624 11.264l103.424 103.424 103.424-103.424q10.24-11.264 25.6-11.264t25.6 11.264l52.224 51.2q10.24 11.264 10.24 26.624zM877.568 448q0-119.808-58.368-220.16t-159.744-159.744-220.16-59.392-221.184 59.392-158.72 159.744-59.392 220.16 59.392 220.16 158.72 159.744 221.184 59.392 220.16-59.392 159.744-159.744 58.368-220.16z" />
<glyph unicode="&#xe80a;" glyph-name="right-open" horiz-adv-x="657" d="M627.712 484.864q0-29.696-20.48-52.224l-372.736-371.712q-21.504-21.504-51.2-21.504t-52.224 21.504l-43.008 43.008q-21.504 21.504-21.504 51.2 0 30.72 21.504 52.224l277.504 277.504-277.504 276.48q-21.504 22.528-21.504 52.224 0 30.72 21.504 51.2l43.008 43.008q20.48 21.504 52.224 21.504t51.2-21.504l372.736-371.712q20.48-21.504 20.48-51.2z" />
<glyph unicode="&#xe80c;" glyph-name="location" horiz-adv-x="585" d="M439.296 594.432q0 60.416-43.008 103.424t-103.424 43.008-103.424-43.008-43.008-103.424 43.008-103.424 103.424-43.008 103.424 43.008 43.008 103.424zM584.704 594.432q0-62.464-18.432-102.4l-207.872-442.368q-9.216-18.432-27.648-29.696t-37.888-11.264-38.912 11.264-26.624 29.696l-208.896 442.368q-18.432 39.936-18.432 102.4 0 120.832 86.016 206.848t206.848 86.016 206.848-86.016 84.992-206.848z" />
<glyph unicode="&#xe80d;" glyph-name="left-open" horiz-adv-x="657" d="M423.936 60.928l-372.736 372.736q-20.48 20.48-20.48 51.2t20.48 52.224l372.736 371.712q21.504 20.48 52.224 20.48t51.2-20.48l43.008-43.008q21.504-21.504 21.504-52.224t-21.504-51.2l-277.504-277.504 277.504-277.504q21.504-21.504 21.504-52.224t-21.504-51.2l-43.008-43.008q-21.504-20.48-51.2-20.48t-52.224 20.48z" />
<glyph unicode="&#xe80e;" glyph-name="ok" d="M954.368 636.416q0-22.528-15.36-38.912l-491.52-491.52q-16.384-15.36-38.912-15.36t-38.912 15.36l-284.672 284.672q-15.36 16.384-15.36 38.912t15.36 38.912l77.824 77.824q16.384 16.384 38.912 16.384t38.912-16.384l167.936-168.96 374.784 375.808q16.384 16.384 38.912 16.384t38.912-16.384l77.824-77.824q15.36-16.384 15.36-38.912z" />
<glyph unicode="&#xe814;" glyph-name="cog-alt" horiz-adv-x="1097" d="M512 448q0 60.416-43.008 103.424t-103.424 43.008-103.424-43.008-43.008-103.424 43.008-103.424 103.424-43.008 103.424 43.008 43.008 103.424zM951.296 155.136q0 29.696-22.528 52.224t-51.2 21.504-51.2-21.504-21.504-52.224q0-29.696 21.504-51.2t51.2-21.504 52.224 21.504 21.504 51.2zM951.296 740.864q0 29.696-22.528 51.2t-51.2 21.504-51.2-21.504-21.504-51.2q0-30.72 21.504-52.224t51.2-21.504 52.224 21.504 21.504 52.224zM731.136 500.224v-105.472q0-6.144-4.096-11.264t-9.216-6.144l-88.064-14.336q-6.144-19.456-18.432-43.008 19.456-27.648 51.2-65.536 4.096-6.144 4.096-11.264 0-7.168-4.096-11.264-13.312-17.408-47.104-51.2t-45.056-33.792q-6.144 0-11.264 4.096l-65.536 51.2q-21.504-11.264-44.032-17.408-6.144-61.44-13.312-89.088-4.096-13.312-17.408-13.312h-106.496q-6.144 0-11.264 4.096t-5.12 10.24l-13.312 87.040q-19.456 6.144-43.008 18.432l-67.584-51.2q-4.096-4.096-11.264-4.096-6.144 0-12.288 4.096-81.92 76.8-81.92 92.16 0 5.12 4.096 10.24 5.12 8.192 23.552 30.72t26.624 34.816q-13.312 24.576-20.48 47.104l-87.040 13.312q-5.12 1.024-9.216 5.12t-4.096 11.264v105.472q0 6.144 4.096 11.264t9.216 6.144l88.064 14.336q7.168 19.456 18.432 43.008-19.456 27.648-51.2 65.536-4.096 6.144-4.096 11.264 0 7.168 4.096 11.264 12.288 17.408 47.104 51.2t45.056 33.792q6.144 0 12.288-4.096l65.536-51.2q19.456 10.24 44.032 18.432 6.144 61.44 13.312 88.064 3.072 13.312 16.384 13.312h106.496q6.144 0 11.264-4.096t6.144-10.24l13.312-87.040q19.456-6.144 41.984-17.408l67.584 50.176q5.12 4.096 11.264 4.096 7.168 0 12.288-4.096 82.944-76.8 82.944-92.16 0-5.12-4.096-10.24-7.168-9.216-24.576-30.72t-25.6-34.816q13.312-27.648 19.456-47.104l87.040-12.288q5.12-2.048 9.216-6.144t4.096-11.264zM1096.704 195.072v-79.872q0-9.216-84.992-17.408-6.144-15.36-16.384-29.696 28.672-64.512 28.672-78.848 0-2.048-2.048-4.096-69.632-40.96-70.656-40.96-5.12 0-26.624 27.648t-29.696 37.888q-11.264-1.024-17.408-1.024t-17.408 1.024q-7.168-11.264-29.696-37.888t-25.6-27.648q-1.024 0-70.656 40.96-3.072 2.048-3.072 4.096 0 14.336 29.696 78.848-10.24 14.336-17.408 29.696-84.992 8.192-84.992 17.408v79.872q0 9.216 84.992 18.432 7.168 16.384 17.408 29.696-29.696 64.512-29.696 78.848 0 2.048 3.072 4.096 2.048 1.024 19.456 11.264t33.792 19.456 17.408 9.216q4.096 0 25.6-26.624t29.696-38.912q12.288 1.024 17.408 1.024t17.408-1.024q28.672 40.96 52.224 64.512l4.096 1.024q2.048 0 70.656-39.936 2.048-2.048 2.048-4.096 0-14.336-28.672-78.848 9.216-13.312 16.384-29.696 84.992-9.216 84.992-18.432zM1096.704 780.8v-79.872q0-9.216-84.992-18.432-6.144-15.36-16.384-29.696 28.672-64.512 28.672-78.848 0-2.048-2.048-4.096-69.632-39.936-70.656-39.936-5.12 0-26.624 26.624t-29.696 38.912q-11.264-1.024-17.408-1.024t-17.408 1.024q-7.168-12.288-29.696-38.912t-25.6-26.624q-1.024 0-70.656 39.936-3.072 2.048-3.072 4.096 0 14.336 29.696 78.848-10.24 14.336-17.408 29.696-84.992 9.216-84.992 18.432v79.872q0 9.216 84.992 17.408 7.168 16.384 17.408 29.696-29.696 64.512-29.696 78.848 0 2.048 3.072 4.096 2.048 1.024 19.456 11.264t33.792 19.456 17.408 9.216q4.096 0 25.6-26.624t29.696-38.912q12.288 2.048 17.408 2.048t17.408-2.048q28.672 40.96 52.224 64.512l4.096 1.024q2.048 0 70.656-39.936 2.048-2.048 2.048-4.096 0-14.336-28.672-78.848 9.216-13.312 16.384-29.696 84.992-8.192 84.992-17.408z" />
<glyph unicode="&#xe816;" glyph-name="down-dir" horiz-adv-x="585" d="M584.704 557.568q0-14.336-10.24-25.6l-256-256q-11.264-11.264-25.6-11.264t-25.6 11.264l-256 256q-11.264 11.264-11.264 25.6t11.264 25.6 25.6 11.264h512q14.336 0 25.6-11.264t10.24-25.6z" />
<glyph unicode="&#xe817;" glyph-name="up-dir" horiz-adv-x="585" d="M584.704 264.704q0-14.336-10.24-25.6t-25.6-10.24h-512q-15.36 0-25.6 10.24t-11.264 25.6 11.264 26.624l256 256q10.24 10.24 25.6 10.24t25.6-10.24l256-256q10.24-11.264 10.24-26.624z" />
<glyph unicode="&#xe818;" glyph-name="doc-text" horiz-adv-x="731" d="M584.704 283.136v-35.84q0-8.192-5.12-13.312t-12.288-5.12h-402.432q-8.192 0-13.312 5.12t-5.12 13.312v35.84q0 8.192 5.12 13.312t13.312 5.12h402.432q7.168 0 12.288-5.12t5.12-13.312zM584.704 429.568v-36.864q0-7.168-5.12-12.288t-12.288-5.12h-402.432q-8.192 0-13.312 5.12t-5.12 12.288v36.864q0 8.192 5.12 13.312t13.312 5.12h402.432q7.168 0 12.288-5.12t5.12-13.312zM72.704 82.432h585.728v438.272h-237.568q-23.552 0-38.912 16.384t-16.384 38.912v237.568h-292.864v-731.136zM439.296 594.432h214.016q-5.12 16.384-12.288 23.552l-179.2 178.176q-6.144 7.168-22.528 13.312v-215.040zM731.136 576v-512q0-22.528-15.36-38.912t-38.912-16.384h-621.568q-23.552 0-38.912 16.384t-16.384 38.912v768q0 22.528 16.384 38.912t38.912 16.384h365.568q22.528 0 50.176-12.288t43.008-26.624l178.176-179.2q16.384-15.36 27.648-43.008t11.264-50.176z" />
<glyph unicode="&#xe819;" glyph-name="check" horiz-adv-x="950" d="M804.864 428.544v-181.248q0-68.608-48.128-116.736t-116.736-48.128h-475.136q-68.608 0-116.736 48.128t-48.128 116.736v475.136q0 67.584 48.128 115.712t116.736 49.152h475.136q35.84 0 66.56-14.336 9.216-4.096 10.24-13.312 2.048-10.24-5.12-16.384l-27.648-28.672q-6.144-5.12-13.312-5.12-2.048 0-5.12 1.024-13.312 3.072-25.6 3.072h-475.136q-37.888 0-64.512-26.624t-27.648-64.512v-475.136q0-37.888 27.648-64.512t64.512-27.648h475.136q37.888 0 64.512 27.648t26.624 64.512v144.384q0 8.192 5.12 13.312l36.864 35.84q6.144 6.144 13.312 6.144 3.072 0 7.168-2.048 11.264-4.096 11.264-16.384zM936.96 708.096l-465.92-464.896q-13.312-14.336-31.744-14.336t-32.768 14.336l-245.76 245.76q-14.336 13.312-14.336 31.744t14.336 32.768l62.464 63.488q14.336 13.312 32.768 13.312t32.768-13.312l150.528-150.528 369.664 369.664q13.312 13.312 31.744 13.312t32.768-13.312l63.488-62.464q13.312-14.336 13.312-32.768t-13.312-32.768z" />
<glyph unicode="&#xe81a;" glyph-name="key-outline" horiz-adv-x="827" d="M320.512 20.992h-320.512v235.52l202.752 202.752q-15.36 46.080-15.36 96.256 0 133.12 93.184 226.304t226.304 93.184 226.304-93.184 94.208-226.304-94.208-227.328-226.304-93.184h-80.896v-107.52h-105.472v-106.496zM106.496 127.488h107.52v107.52h106.496v106.496h186.368q88.064 0 150.528 62.464t62.464 151.552-62.464 149.504-150.528 62.464-150.528-62.464-63.488-149.504q0-46.080 19.456-89.088l15.36-32.768-221.184-221.184v-84.992zM506.88 607.744q-21.504 0-37.888-15.36t-15.36-36.864 15.36-37.888 37.888-16.384 37.888 16.384 16.384 37.888-16.384 36.864-37.888 15.36zM506.88 660.992q44.032 0 74.752-30.72t31.744-74.752q0-45.056-31.744-76.8t-74.752-30.72-75.776 31.744-31.744 75.776 31.744 74.752 75.776 30.72z" />
<glyph unicode="&#xe81b;" glyph-name="logout" horiz-adv-x="950" d="M365.568 136.704q0-2.048 1.024-11.264t0-14.336-2.048-14.336-5.12-11.264-12.288-3.072h-182.272q-68.608 0-116.736 48.128t-48.128 116.736v401.408q0 68.608 48.128 116.736t116.736 48.128h182.272q8.192 0 13.312-5.12t5.12-13.312q0-2.048 1.024-11.264t0-15.36-2.048-13.312-5.12-11.264-12.288-3.072h-182.272q-37.888 0-64.512-27.648t-27.648-64.512v-401.408q0-37.888 27.648-64.512t64.512-27.648h178.176t6.144 0 7.168-2.048 4.096-3.072 4.096-5.12 1.024-8.192zM896 448q0-14.336-11.264-25.6l-310.272-311.296q-11.264-10.24-25.6-10.24t-25.6 10.24-11.264 25.6v164.864h-256q-14.336 0-25.6 11.264t-11.264 25.6v219.136q0 15.36 11.264 25.6t25.6 11.264h256v164.864q0 14.336 11.264 25.6t25.6 10.24 25.6-10.24l310.272-311.296q11.264-10.24 11.264-25.6z" />
<glyph unicode="&#xe81c;" glyph-name="users" horiz-adv-x="1227" d="M880.64 635.392q0-110.592-78.848-188.416t-188.416-77.824-188.416 77.824-77.824 188.416 77.824 187.392 188.416 78.848 188.416-78.848 78.848-187.392zM1173.504 448q0-55.296-38.912-94.208t-95.232-38.912-94.208 38.912-38.912 94.208 38.912 94.208 94.208 38.912 95.232-38.912 38.912-94.208zM1039.36 283.136q81.92 0 134.144-34.816t53.248-80.896q0-22.528-54.272-40.96t-133.12-17.408q-43.008 0-83.968 6.144 0-2.048 0-7.168t1.024-7.168q0-41.984-98.304-73.728t-244.736-32.768q-153.6 0-247.808 32.768t-94.208 73.728q0 3.072 1.024 8.192t0 7.168q-51.2-7.168-84.992-7.168-83.968 0-135.168 17.408t-52.224 40.96q0 46.080 51.2 80.896t136.192 34.816q100.352 0 154.624-51.2 101.376 82.944 271.36 82.944t271.36-82.944q53.248 51.2 154.624 51.2zM320.512 448q0-55.296-38.912-94.208t-94.208-38.912-95.232 38.912-37.888 94.208 37.888 94.208 95.232 38.912q54.272 0 93.184-38.912t39.936-94.208z" />
<glyph unicode="&#xe81d;" glyph-name="block" horiz-adv-x="878" d="M749.568 450.048q0 92.16-49.152 167.936l-431.104-430.080q77.824-51.2 169.984-51.2 63.488 0 120.832 25.6t98.304 66.56 66.56 99.328 24.576 121.856zM179.2 279.040l431.104 431.104q-76.8 51.2-171.008 51.2-84.992 0-156.672-40.96t-112.64-114.688-41.984-155.648q0-93.184 51.2-171.008zM877.568 450.048q0-90.112-34.816-172.032t-93.184-140.288-140.288-94.208-169.984-34.816-171.008 34.816-140.288 94.208-93.184 140.288-34.816 172.032 34.816 171.008 93.184 140.288 140.288 93.184 171.008 34.816 169.984-34.816 140.288-93.184 93.184-140.288 34.816-171.008z" />
<glyph unicode="&#xe81e;" glyph-name="star-empty" horiz-adv-x="950" d="M649.216 386.56l175.104 168.96-240.64 35.84-108.544 218.112-107.52-218.112-241.664-35.84 175.104-168.96-41.984-240.64 216.064 113.664 216.064-113.664zM951.296 590.336q0-12.288-15.36-27.648l-207.872-201.728 49.152-285.696q1.024-4.096 1.024-12.288 0-28.672-23.552-28.672-10.24 0-22.528 7.168l-257.024 135.168-256-135.168q-13.312-7.168-23.552-7.168-11.264 0-17.408 9.216t-6.144 19.456q0 4.096 1.024 12.288l49.152 285.696-207.872 201.728q-14.336 15.36-14.336 27.648 0 21.504 31.744 26.624l286.72 40.96 129.024 260.096q11.264 23.552 27.648 23.552t28.672-23.552l128-260.096 286.72-40.96q32.768-5.12 32.768-26.624z" />
<glyph unicode="&#xe81f;" glyph-name="dollar" horiz-adv-x="585" d="M559.104 283.136q0-88.064-57.344-150.528t-147.456-78.848v-99.328q0-8.192-5.12-13.312t-13.312-5.12h-76.8q-7.168 0-13.312 5.12t-5.12 13.312v99.328q-37.888 5.12-72.704 18.432t-58.368 25.6-41.984 26.624-26.624 21.504-10.24 10.24q-9.216 12.288-1.024 23.552l59.392 77.824q3.072 5.12 12.288 6.144t14.336-5.12l1.024-1.024q64.512-56.32 138.24-71.68 21.504-4.096 43.008-4.096 46.080 0 80.896 24.576t35.84 69.632q0 16.384-9.216 30.72t-18.432 23.552-33.792 21.504-37.888 18.432-46.080 18.432q-21.504 9.216-34.816 14.336t-34.816 15.36-35.84 17.408-32.768 20.48-29.696 24.576-25.6 27.648-20.48 32.768-11.264 37.888-5.12 45.056q0 78.848 56.32 138.24t145.408 76.8v102.4q0 7.168 5.12 13.312t13.312 5.12h76.8q8.192 0 13.312-5.12t5.12-13.312v-100.352q32.768-4.096 63.488-13.312t49.152-19.456 36.864-21.504 21.504-16.384 9.216-8.192q9.216-10.24 3.072-21.504l-47.104-82.944q-4.096-9.216-12.288-9.216-8.192-2.048-16.384 4.096-1.024 1.024-8.192 6.144t-21.504 15.36-33.792 18.432-43.008 15.36-48.128 6.144q-54.272 0-89.088-24.576t-33.792-63.488q0-14.336 4.096-27.648t17.408-23.552 22.528-18.432 31.744-18.432 34.816-15.36 39.936-15.36q30.72-11.264 46.080-18.432t44.032-19.456 43.008-24.576 34.816-28.672 30.72-35.84 18.432-44.032 7.168-53.248z" />
<glyph unicode="&#xe820;" glyph-name="w" d="M0 448q4.096 214.016 154.624 362.496t357.376 149.504q211.968-4.096 361.472-154.624t150.528-357.376q-4.096-211.968-154.624-361.472t-357.376-150.528q-214.016 4.096-361.472 154.624t-150.528 357.376zM35.84 448q2.048-197.632 143.36-335.872t332.8-140.288q197.632 4.096 335.872 144.384t140.288 331.776q-4.096 197.632-144.384 335.872t-331.776 140.288q-197.632-4.096-336.896-144.384t-139.264-331.776zM77.824 417.28q-8.192 110.592 33.792 204.8l209.92-566.272q-111.616 56.32-177.152 158.72-58.368 91.136-66.56 202.752zM148.48 687.616q63.488 92.16 160.768 143.36t202.752 53.248q172.032-4.096 293.888-113.664-48.128 1.024-71.68-40.96-4.096-25.6-6.144-39.936t7.168-35.84 14.336-33.792 18.432-31.744l18.432-30.72q33.792-63.488 7.168-147.456l-63.488-224.256-157.696 470.016q44.032 4.096 47.104 4.096 12.288 4.096 15.36 14.336t-7.168 15.36q-6.144 6.144-11.264 6.144l-96.256-8.192h-71.68q-4.096 0-27.648 4.096t-37.888 2.048-17.408-13.312q-3.072-16.384 14.336-20.48 33.792-4.096 48.128-6.144l69.632-183.296-95.232-284.672-160.768 470.016q44.032 4.096 50.176 4.096 18.432 2.048 16.384 20.48-4.096 15.36-20.48 15.36-71.68-10.24-139.264-8.192zM388.096 30.208l132.096 375.808 136.192-367.616q-134.144-46.080-268.288-8.192zM730.112 70.144q6.144 19.456 21.504 63.488l122.88 354.304q15.36 50.176 23.552 113.664 2.048 28.672-2.048 50.176 77.824-165.888 33.792-319.488-52.224-176.128-199.68-262.144z" />
<glyph unicode="&#xe821;" glyph-name="lock" horiz-adv-x="706" d="M0 58.88v402.432q0 15.36 10.24 25.6t24.576 10.24h47.104v151.552q0 55.296 20.48 106.496t57.344 89.088q36.864 39.936 87.040 61.44t106.496 21.504q55.296 0 105.472-21.504t87.040-61.44q36.864-38.912 57.344-89.088t20.48-106.496v-151.552h47.104q14.336 0 24.576-10.24t10.24-25.6v-402.432q0-7.168-3.072-12.288t-7.168-8.192-10.24-7.168-14.336-6.144q-19.456-8.192-54.272-18.432t-113.664-24.576-150.528-14.336q-154.624 0-317.44 57.344-16.384 6.144-25.6 13.312t-9.216 20.48zM210.944 497.152h283.648v151.552q0 64.512-43.008 109.568-40.96 43.008-98.304 44.032-59.392-1.024-100.352-44.032-41.984-45.056-41.984-109.568v-151.552z" />
<glyph unicode="&#xe8b6;" glyph-name="search" d="M406 340.667c106 0 192 86 192 192s-86 192-192 192-192-86-192-192 86-192 192-192zM662 340.667l212-212-64-64-212 212v34l-12 12c-48-42-112-66-180-66-154 0-278 122-278 276s124 278 278 278 276-124 276-278c0-68-24-132-66-180l12-12h34z" />
<glyph unicode="&#xe900;" glyph-name="checkmark" d="M512 864c-229.76 0-416-186.24-416-416s186.24-416 416-416 416 186.24 416 416-186.24 416-416 416zM744.256 566.176l-303.552-303.52c-7.616-7.584-19.936-7.584-27.552 0l-6.112 6.112-0.032-0.032-167.008 168.192c-7.616 7.616-7.616 19.968 0 27.584l41.408 41.376c7.616 7.616 19.968 7.616 27.584 0l118.048-118.912 248.192 248.192c7.616 7.616 19.968 7.616 27.584 0l41.408-41.408c7.648-7.584 7.648-19.936 0.032-27.584z" />
<glyph unicode="&#xe901;" glyph-name="menu" d="M128 384h768c23.552 0 42.667 19.115 42.667 42.667s-19.115 42.667-42.667 42.667h-768c-23.552 0-42.667-19.115-42.667-42.667s19.115-42.667 42.667-42.667zM128 640h768c23.552 0 42.667 19.115 42.667 42.667s-19.115 42.667-42.667 42.667h-768c-23.552 0-42.667-19.115-42.667-42.667s19.115-42.667 42.667-42.667zM128 128h768c23.552 0 42.667 19.115 42.667 42.667s-19.115 42.667-42.667 42.667h-768c-23.552 0-42.667-19.115-42.667-42.667s19.115-42.667 42.667-42.667z" />
<glyph unicode="&#xe902;" glyph-name="minus" d="M819.2 460.8c0-28.314-2.458-51.2-30.771-51.2h-552.858c-28.262 0-30.771 22.886-30.771 51.2s2.509 51.2 30.771 51.2h552.909c28.262 0 30.72-22.886 30.72-51.2z" />
<glyph unicode="&#xe903;" glyph-name="film" d="M128 768v-704h704v704h-704zM256 128h-64v64h64v-64zM256 224h-64v64h64v-64zM256 320h-64v64h64v-64zM256 448h-64v64h64v-64zM256 544h-64v64h64v-64zM256 640h-64v64h64v-64zM640 128h-320v256h320v-256zM640 448h-320v256h320v-256zM768 128h-64v64h64v-64zM768 224h-64v64h64v-64zM768 320h-64v64h64v-64zM768 448h-64v64h64v-64zM768 544h-64v64h64v-64zM768 640h-64v64h64v-64z" />
<glyph unicode="&#xe904;" glyph-name="calendar" d="M896 0h-768c-35.328 0-64 28.672-64 64v672c0 35.328 28.672 64 64 64h64v-32c0-53.024 42.976-96 96-96s96 42.976 96 96v32h256v-32c0-53.024 43.008-96 96-96s96 42.976 96 96v32h64c35.328 0 64-28.672 64-64v-672c0-35.328-28.672-64-64-64zM896 576h-768v-512h768v512zM418.208 325.472c6.304 10.048 9.472 20.672 9.472 31.776 0 24.736-13.312 37.12-39.936 37.12-23.136 0-45.248-9.184-66.368-27.552v52.128c23.36 15.136 49.76 22.688 79.136 22.688 27.488 0 48.96-6.912 64.416-20.704s23.168-32.48 23.168-55.968c0-31.36-18.816-63.808-56.448-97.312l-55.328-49.12v-1.12h109.12v-49.12h-176.992v46.112l77.056 73.696c15.488 14.848 26.4 27.296 32.704 37.376zM634.784 218.688c8.448 6.496 12.672 15.552 12.672 27.2 0 12-5.216 21.248-15.648 27.744s-24.768 9.76-43.040 9.76h-24.192v45.376h22.304c35.008 0 52.512 11.616 52.512 34.88 0 21.888-13.44 32.8-40.32 32.8-17.984 0-35.488-5.824-52.512-17.44v48.384c18.88 9.504 40.864 14.24 65.984 14.24 27.488 0 48.896-6.176 64.224-18.56s22.976-28.448 22.976-48.192c0-35.136-17.824-57.12-53.44-65.984v-0.928c19.008-2.368 33.984-9.28 44.992-20.704s16.512-25.472 16.512-42.080c0-25.12-9.184-44.992-27.552-59.616s-43.744-21.952-76.128-21.952c-27.744 0-50.304 4.512-67.68 13.504v51.552c17.984-13.12 39.008-19.68 63.008-19.68 15.104-0.064 26.88 3.2 35.328 9.696zM735.008 704c-34.816 0-63.008 28.192-63.008 63.008v65.984c0 34.816 28.192 63.008 63.008 63.008s63.008-28.192 63.008-63.008v-65.984c0-34.816-28.192-63.008-63.008-63.008zM287.008 704c-34.816 0-63.008 28.192-63.008 63.008v65.984c0 34.816 28.192 63.008 63.008 63.008s63.008-28.192 63.008-63.008v-65.984c0-34.816-28.224-63.008-63.008-63.008z" />
<glyph unicode="&#xe905;" glyph-name="whatsapp" d="M746.581 346.368c-12.843 6.4-75.392 36.992-87.040 41.216-11.648 4.309-20.181 6.4-28.715-6.4-8.405-12.587-32.896-41.131-40.277-49.579-7.467-8.32-14.891-8.96-27.563-3.2-12.8 6.4-53.888 19.84-102.528 63.36-37.888 33.92-63.317 75.52-70.827 88.32-7.424 12.8-0.811 19.84 5.547 26.24 5.803 5.76 12.843 14.72 19.243 22.315 6.229 7.723 8.277 12.843 12.672 21.163 4.267 8.96 2.091 16-1.067 22.357-3.2 6.4-28.672 69.12-39.339 94.123-10.24 24.917-20.779 21.76-28.672 21.76-7.339 0.64-15.829 0.64-24.363 0.64s-22.315-3.157-34.005-15.317c-11.648-12.8-44.587-43.52-44.587-105.6s45.653-122.24 52.011-131.2c6.357-8.32 89.813-136.32 217.6-191.36 30.464-12.8 54.187-20.48 72.704-26.837 30.464-9.685 58.24-8.32 80.213-5.163 24.491 3.883 75.392 30.763 86.016 60.843 10.88 30.080 10.88 55.040 7.68 60.8-3.157 5.76-11.52 8.96-24.32 14.72zM514.603 32h-0.683c-75.52 0-150.357 20.48-215.68 58.88l-15.36 9.131-160-41.6 42.88 155.52-10.197 16c-42.24 67.243-64.683 144.683-64.683 224.427 0 232.32 190.080 421.76 424.192 421.76 113.237 0 219.52-44.16 299.563-124.16 80-79.317 124.117-185.6 124.117-298.24-0.171-232.277-190.293-421.76-423.893-421.76zM875.52 812.843c-97.28 94.037-225.28 147.157-361.6 147.157-280.832 0-509.483-227.584-509.611-507.435 0-89.429 23.424-176.64 68.053-253.653l-72.363-262.912 270.293 70.485c74.496-40.235 158.293-61.611 243.627-61.739h0.256c280.96 0 509.696 227.669 509.824 507.563 0 135.509-52.907 263.040-149.12 358.869z" />
<glyph unicode="&#xe906;" glyph-name="viber" d="M486.315 959.915c-82.133-1.109-258.859-14.592-357.717-105.173-73.387-72.96-99.029-180.523-102.016-313.728-2.56-132.693-5.547-381.867 234.667-449.749v-103.253c0 0-1.621-41.387 25.685-49.92 33.707-10.667 52.907 21.291 84.907 55.424l59.733 67.413c164.267-13.653 290.133 17.877 304.64 22.571 33.28 10.667 221.056 34.603 251.776 283.819 31.573 257.323-15.36 419.456-99.84 492.843l-0.427 0.085c-25.6 23.467-128 98.133-357.12 98.987 0 0-16.896 1.067-44.288 0.683zM489.173 887.509c23.253 0.128 37.547-0.853 37.547-0.853 193.707-0.427 286.336-58.88 308.096-78.507 71.253-60.971 107.861-207.189 81.067-422.059-25.6-208.213-177.92-221.44-206.080-230.4-11.947-3.84-122.88-31.147-262.485-22.187 0 0-104.064-125.483-136.491-157.909-5.12-5.547-11.093-7.253-14.933-6.4-5.547 1.28-7.253 8.107-6.827 17.493l0.853 171.477c-203.563 56.32-191.616 268.885-189.483 379.819 2.56 110.933 23.467 201.899 85.333 263.339 83.499 75.52 233.6 85.76 303.403 86.187zM504.533 776.576c-0.013 0-0.028 0-0.043 0-7.046 0-12.757-5.712-12.757-12.757 0 0 0 0 0 0v0c0-7.069 5.731-12.8 12.8-12.8v0c1.364 0.028 2.971 0.044 4.583 0.044 65.1 0 124.152-25.892 167.421-67.939l-0.057 0.055c46.507-45.227 69.163-105.813 70.016-185.173 0-7.069 5.731-12.8 12.8-12.8v0 0.384c7.069 0 12.8 5.731 12.8 12.8v0c0.157 3.48 0.247 7.56 0.247 11.662 0 74.43-29.543 141.961-77.544 191.504l0.070-0.072c-50.773 49.493-114.859 75.093-190.336 75.093zM335.829 747.136c-1.727 0.259-3.721 0.408-5.748 0.408-7.549 0-14.619-2.053-20.681-5.631l0.19 0.104h-0.512c-17.493-10.24-33.621-23.040-48.981-40.107-11.52-13.653-17.963-27.264-19.669-40.491-0.279-2.039-0.438-4.396-0.438-6.791 0-5.823 0.941-11.426 2.678-16.666l-0.107 0.374 0.853-0.427c14.645-42.578 31.945-79.22 52.671-113.56l-1.471 2.627c28.652-51.472 61.491-95.882 99.246-135.571l-0.26 0.275 1.28-1.707 1.707-1.28 2.56-2.56c39.559-37.583 84.086-70.554 132.337-97.686l3.343-1.728c56.32-30.72 90.539-45.227 111.019-51.2v-0.427c5.973-1.707 11.435-2.56 16.981-2.56 18.235 1.369 34.519 8.773 47.083 20.196l-0.064-0.057c16.64 14.933 29.867 31.488 39.68 48.981v0.427c9.813 18.347 6.4 35.883-7.68 47.829-27.026 23.744-57.036 45.466-88.997 64.222l-2.736 1.484c-21.76 11.947-43.947 4.693-52.907-7.253l-19.2-24.277c-9.813-11.947-27.733-10.24-27.733-10.24l-0.512-0.427c-133.12 34.133-168.533 168.917-168.533 168.917s-1.707 18.347 10.667 27.733l23.893 19.2c11.52 9.387 19.627 31.573 7.253 53.333-20.207 34.7-41.93 64.712-66.261 92.376l0.555-0.643c-5.305 6.541-12.762 11.155-21.28 12.765l-0.224 0.035zM526.677 709.163c-7.051-0.024-12.757-5.746-12.757-12.8 0-7.069 5.731-12.8 12.8-12.8 0.015 0 0.030 0 0.045 0h-0.002c44.424-0.795 84.345-19.431 113.026-49.025l0.041-0.042c23.999-26.399 38.693-61.631 38.693-100.296 0-3.292-0.107-6.56-0.316-9.799l0.023 0.441c0.024-7.051 5.746-12.757 12.8-12.757 0 0 0 0 0 0v0l0.427-0.512c0 0 0 0 0 0 7.069 0 12.8 5.731 12.8 12.8 0 0.015 0 0.030 0 0.045v-0.002c1.28 50.773-14.507 93.44-45.653 127.573s-74.667 53.333-130.133 57.173c-0.268 0.020-0.581 0.031-0.896 0.031s-0.628-0.011-0.937-0.034l0.041 0.002zM547.584 640.085c-0.114 0.004-0.249 0.006-0.384 0.006-7.202 0-13.040-5.838-13.040-13.040 0-7.067 5.621-12.821 12.637-13.034h0.020c42.24-2.133 62.72-23.467 65.28-67.413 0.237-6.883 5.874-12.373 12.793-12.373 0.002 0 0.005 0 0.007 0h0.426c6.896 0.221 12.402 5.864 12.402 12.794 0 0.302-0.010 0.602-0.031 0.9l0.002-0.040c-2.987 57.173-34.133 89.216-89.6 92.203-0.076 0.002-0.166 0.003-0.256 0.003s-0.18-0.001-0.269-0.003h0.013z" />
<glyph unicode="&#xea1d;" glyph-name="phone" d="M704 320c-64-64-64-128-128-128s-128 64-192 128-128 128-128 192 64 64 128 128-128 256-192 256-192-192-192-192c0-128 131.5-387.5 256-512s384-256 512-256c0 0 192 128 192 192s-192 256-256 192z" />
<glyph unicode="&#xec07;" glyph-name="airplane" d="M938.112 444.14l-210.492-76.612-533.192 248.632-150.352-54.724 412.91-292.41-210.49-76.614-164.058 76.5-82.694-30.098 200.32-199.516 781.826 284.562c33.214 12.090 50.34 48.816 38.25 82.032-12.088 33.214-48.816 50.338-82.028 38.248z" />
<glyph unicode="&#xeca6;" glyph-name="report" d="M0 960h128v-1024h-128v1024zM640 896c-32 0-48 16-64 32s-32 32-64 32h-320v-640h320c32 0 48-16 64-32s32-32 64-32h320v640h-320z" />
<glyph unicode="&#xed6f;" glyph-name="checkmark1" d="M864 832l-480-480-224 224-160-160 384-384 640 640z" />
<glyph unicode="&#xf005;" glyph-name="star" horiz-adv-x="951" d="M950.857 581.143q0-12.571-14.857-27.429l-207.429-202.286 49.143-285.714q0.571-4 0.571-11.429 0-12-6-20.286t-17.429-8.286q-10.857 0-22.857 6.857l-256.571 134.857-256.571-134.857q-12.571-6.857-22.857-6.857-12 0-18 8.286t-6 20.286q0 3.429 1.143 11.429l49.143 285.714-208 202.286q-14.286 15.429-14.286 27.429 0 21.143 32 26.286l286.857 41.714 128.571 260q10.857 23.429 28 23.429t28-23.429l128.571-260 286.857-41.714q32-5.143 32-26.286z" />
<glyph unicode="&#xf059;" glyph-name="question-circle" horiz-adv-x="878" d="M512 164.571v109.714q0 8-5.143 13.143t-13.143 5.143h-109.714q-8 0-13.143-5.143t-5.143-13.143v-109.714q0-8 5.143-13.143t13.143-5.143h109.714q8 0 13.143 5.143t5.143 13.143zM658.286 548.571q0 50.286-31.714 93.143t-79.143 66.286-97.143 23.429q-138.857 0-212-121.714-8.571-13.714 4.571-24l75.429-57.143q4-3.429 10.857-3.429 9.143 0 14.286 6.857 30.286 38.857 49.143 52.571 19.429 13.714 49.143 13.714 27.429 0 48.857-14.857t21.429-33.714q0-21.714-11.429-34.857t-38.857-25.714q-36-16-66-49.429t-30-71.714v-20.571q0-8 5.143-13.143t13.143-5.143h109.714q8 0 13.143 5.143t5.143 13.143q0 10.857 12.286 28.286t31.143 28.286q18.286 10.286 28 16.286t26.286 20 25.429 27.429 16 34.571 7.143 46.286zM877.714 438.857q0-119.429-58.857-220.286t-159.714-159.714-220.286-58.857-220.286 58.857-159.714 159.714-58.857 220.286 58.857 220.286 159.714 159.714 220.286 58.857 220.286-58.857 159.714-159.714 58.857-220.286z" />
<glyph unicode="&#xf105;" glyph-name="angle-right" horiz-adv-x="347" d="M340 402.286q0-7.429-5.714-13.143l-266.286-266.286q-5.714-5.714-13.143-5.714t-13.143 5.714l-28.571 28.571q-5.714 5.714-5.714 13.143t5.714 13.143l224.571 224.571-224.571 224.571q-5.714 5.714-5.714 13.143t5.714 13.143l28.571 28.571q5.714 5.714 13.143 5.714t13.143-5.714l266.286-266.286q5.714-5.714 5.714-13.143z" />
<glyph unicode="&#xf106;" glyph-name="angle-up" horiz-adv-x="658" d="M614.286 274.286q0-7.429-5.714-13.143l-28.571-28.571q-5.714-5.714-13.143-5.714t-13.143 5.714l-224.571 224.571-224.571-224.571q-5.714-5.714-13.143-5.714t-13.143 5.714l-28.571 28.571q-5.714 5.714-5.714 13.143t5.714 13.143l266.286 266.286q5.714 5.714 13.143 5.714t13.143-5.714l266.286-266.286q5.714-5.714 5.714-13.143z" />
<glyph unicode="&#xf107;" glyph-name="angle-down" horiz-adv-x="658" d="M614.286 530.286q0-7.429-5.714-13.143l-266.286-266.286q-5.714-5.714-13.143-5.714t-13.143 5.714l-266.286 266.286q-5.714 5.714-5.714 13.143t5.714 13.143l28.571 28.571q5.714 5.714 13.143 5.714t13.143-5.714l224.571-224.571 224.571 224.571q5.714 5.714 13.143 5.714t13.143-5.714l28.571-28.571q5.714-5.714 5.714-13.143z" />
<glyph unicode="&#xf111;" glyph-name="circle" horiz-adv-x="878" d="M877.714 438.857q0-119.429-58.857-220.286t-159.714-159.714-220.286-58.857-220.286 58.857-159.714 159.714-58.857 220.286 58.857 220.286 159.714 159.714 220.286 58.857 220.286-58.857 159.714-159.714 58.857-220.286z" />
<glyph unicode="&#xf205;" glyph-name="toggle-on1" horiz-adv-x="1170" d="M1170.285 438.857q0 74.286-29.143 142t-78 116.571-116.571 78-142 29.143h-438.857q-74.286 0-142-29.143t-116.571-78-78-116.571-29.143-142 29.143-142 78-116.571 116.571-78 142-29.143h438.857q74.286 0 142 29.143t116.571 78 78 116.571 29.143 142zM365.714 146.286q-59.429 0-113.429 23.143t-93.429 62.571-62.571 93.429-23.143 113.429 23.143 113.429 62.571 93.429 93.429 62.571 113.429 23.143 113.429-23.143 93.429-62.571 62.571-93.429 23.143-113.429-23.143-113.429-62.571-93.429-93.429-62.571-113.429-23.143z" />
<glyph unicode="&#xf206;" glyph-name="toggle-on2" horiz-adv-x="1170" d="M0 438.857q0 74.286 29.143 142t78 116.571 116.571 78 142 29.143h438.857q74.286 0 142-29.143t116.571-78 78-116.571 29.143-142-29.143-142-78-116.571-116.571-78-142-29.143h-438.857q-74.286 0-142 29.143t-116.571 78-78 116.571-29.143 142zM804.571 146.286q59.429 0 113.429 23.143t93.429 62.571 62.571 93.429 23.143 113.429-23.143 113.429-62.571 93.429-93.429 62.571-113.429 23.143-113.429-23.143-93.429-62.571-62.571-93.429-23.143-113.429 23.143-113.429 62.571-93.429 93.429-62.571 113.429-23.143z" />
</font>
</defs>
</svg>
